<?xml version="1.0" standalone="no"?>
<!DOCTYPE svg PUBLIC "-//W3C//DTD SVG 1.1//EN" "http://www.w3.org/Graphics/SVG/1.1/DTD/svg11.dtd" >
<!--
2013-9-30: Created.
-->
<svg>
<metadata>
Created by iconfont
</metadata>
<defs>

<font id="iconfont" horiz-adv-x="1024" >
  <font-face
    font-family="iconfont"
    font-weight="500"
    font-stretch="normal"
    units-per-em="1024"
    ascent="896"
    descent="-128"
  />
    <missing-glyph />
    
    <glyph glyph-name="download" unicode="&#58881;" d="M771.238 462.966c-48.762 111.806-160.142 190.034-289.912 190.034-174.674 0-316.28-141.604-316.28-316.278 0-0.954 0.134-1.872 0.142-2.824-89.786-15.028-158.282-92.89-158.282-186.944 0-104.806 84.964-189.768 189.77-189.768l600.928 0 0 2.186c124.78 15.594 221.398 121.828 221.398 250.838C1019 348.172 908.524 460.138 771.238 462.966zM512.954 52.07l-158.14 158.14 94.884 0L449.698 431.604l126.512 0 0-221.396 94.882 0L512.954 52.07z"  horiz-adv-x="1024" />

    
    <glyph glyph-name="403-abort" unicode="&#59075;" d="M513.554914 835.77536c-248.291946 0-449.583438-201.303772-449.583438-449.625394 0-248.299109 201.292516-449.595718 449.583438-449.595718 248.281713 0 449.63665 201.296609 449.63665 449.595718C963.192587 634.471588 761.836627 835.77536 513.554914 835.77536zM513.675664-21.67336899999998c-225.166249 0-407.700539 182.538383-407.700539 407.703609 0 225.173412 182.533266 407.710772 407.700539 407.710772 225.169319 0 407.703609-182.53736 407.703609-407.710772C921.379273 160.86501399999997 738.844983-21.67336899999998 513.675664-21.67336899999998zM735.450676 427.297109c22.720468 0 41.139979-18.416442 41.139979-41.132816l0 0c0-22.724561-18.419512-41.139979-41.139979-41.139979L291.70827 345.024314c-22.716374 0-41.135886 18.415418-41.135886 41.139979l0 0c0 22.716374 18.419512 41.132816 41.135886 41.132816L735.450676 427.297109z"  horiz-adv-x="1024" />

    
    <glyph glyph-name="wenjianjia" unicode="&#59007;" d="M861.040535-7.894551c0-30.909987-25.074072-55.877635-55.924707-55.877635l-698.703239 0 97.848539 461.131449c0 30.879288 24.919553 55.906288 55.770188 55.906288L902.95925 453.26555c30.855752 0 55.828516-25.027 55.828516-55.906288L861.040535-7.894551 861.040535-7.894551 861.040535-7.894551zM218.161718 495.207801l628.870778 0L847.032496 550.098969c0 30.879288-25.076118 55.906288-55.877635 55.906288L455.787744 606.005256l0 50.658773c0 30.827099-25.027 55.877635-55.877635 55.877635L120.367415 712.541665c-30.855752 0-55.877635-25.050536-55.877635-55.877635l0-664.558581 97.747231 447.175599C162.237011 470.162382 187.311083 495.207801 218.161718 495.207801L218.161718 495.207801 218.161718 495.207801zM218.161718 495.207801"  horiz-adv-x="1024" />

    
    <glyph glyph-name="querycriteria" unicode="&#58989;" d="M965.6 448.8h-213.6c-14.4 0-26.4 12-26.4 26.4s12 26.4 26.4 26.4h213.6c14.4 0 26.4-12 26.4-26.4 0.8-14.4-11.2-26.4-26.4-26.4zM965.6 662.4h-266.4c-14.4 0-26.4 12-26.4 26.4 0 14.4 12 26.4 26.4 26.4h267.2c14.4 0 26.4-12 26.4-26.4-0-14.4-12-26.4-27.2-26.4zM606.4 272.8l156.8-156.8c21.6-21.6 21.6-56.8 0-78.4s-56.8-21.6-78.4 0l-156.8 156.8c-16 16-20 39.2-12 59.2-51.2-44-117.6-72-190.4-72-162.4 0-293.6 131.2-293.6 293.6s131.2 293.6 293.6 293.6 293.6-131.2 293.6-293.6c0-72.8-28-139.2-72-190.4 20 8 43.2 4 59.2-12zM324.8 662.4c-103.2 0-187.2-84-187.2-187.2s84-187.2 187.2-187.2 187.2 84.8 187.2 188-84 186.4-187.2 186.4zM805.6 288.8h160c14.4 0 26.4-12 26.4-26.4s-12-26.4-26.4-26.4h-160c-14.4 0-26.4 12-26.4 26.4s12 26.4 26.4 26.4z"  horiz-adv-x="1024" />

    
    <glyph glyph-name="iconfont15" unicode="&#58897;" d="M512 896c-282.752 0-512-229.248-512-512 0-282.816 229.248-512 512-512s512 229.184 512 512c0 282.752-229.248 512-512 512zM512-64c-247.36 0-448 200.512-448 448 0 247.424 200.64 448 448 448s448-200.576 448-448c0-247.488-200.64-448-448-448zM288 341.334c149.312 0 298.688 0 448 0 41.28 0 41.28 64 0 64-149.312 0-298.688 0-448 0-41.28 0-41.28-64 0-64v0z"  horiz-adv-x="1024" />

    
    <glyph glyph-name="wenjianjiafan-copy-copy" unicode="&#59688;" d="M958.13 133.658l-124.217 463.586c-4.986 18.607-21.922 31.602-41.186 31.602h-678.668c-1.75 0-3.482-0.111-5.189-0.316v0.316c-24.685 0-44.768-20.084-44.768-44.769v-612.973c0-24.685 20.083-44.769 44.768-44.769h172.413c11.959 0 23.201 4.658 31.657 13.114l55.509 55.509c1.466 1.466 3.417 2.274 5.492 2.274h411.099c24.685 0 44.769 20.083 44.769 44.768v37.983h87.136c13.362 0 25.691 6.079 33.827 16.681 8.135 10.603 10.817 24.085 7.359 36.995zM101.102-28.898v498.713l95.987-358.231c4.986-18.608 21.922-31.603 41.186-31.603h554.532v-37.983c0-4.283-3.485-7.768-7.768-7.768h-411.099c-11.957 0-23.199-4.656-31.656-13.111l-55.51-55.51c-1.466-1.467-3.417-2.275-5.492-2.275h-172.414c-4.283 0-7.768 3.484-7.768 7.767zM921.416 119.189c-0.632-0.824-2.053-2.206-4.471-2.206h-678.668c-2.546 0-4.785 1.718-5.444 4.178l-124.217 463.585c-0.626 2.337 0.34 4.066 0.972 4.891 0.631 0.823 2.053 2.206 4.471 2.206h678.668c2.546 0 4.785-1.718 5.444-4.178l124.218-463.586c0.626-2.336-0.341-4.066-0.972-4.89z"  horiz-adv-x="1024" />

    
    <glyph glyph-name="filter-drop" unicode="&#59043;" d="M113.90464 691.80928c-58.07616 0-105.1904-45.52704-105.1904-101.71392 0-56.15616 47.11424-101.67296 105.1904-101.67296 58.1376 0 105.25696 45.52192 105.25696 101.67296C219.15648 646.28736 172.04224 691.80928 113.90464 691.80928zM113.90464 420.57728c-58.07616 0-105.1904-45.52192-105.1904-101.71392 0-56.15616 47.11424-101.67296 105.1904-101.67296 58.1376 0 105.25696 45.52192 105.25696 101.67296C219.15648 375.05535999999995 172.04224 420.57728 113.90464 420.57728zM113.90464 149.34528c-58.07616 0-105.1904-45.52192-105.1904-101.71392 0-56.15104 47.11424-101.7088 105.1904-101.7088 58.1376 0 105.25696 45.55776 105.25696 101.7088C219.15648 103.82335999999998 172.04224 149.34528 113.90464 149.34528zM394.50624 522.32704l561.1776 0c38.72768 0 70.144 30.33088 70.144 67.77344 0 37.44768-31.41632 67.84-70.144 67.84L394.50624 657.94048c-38.73792 0-70.16448-30.39232-70.16448-67.84C324.34176 552.6528000000001 355.7632 522.32704 394.50624 522.32704zM955.68384 386.67264L394.50624 386.67264c-38.73792 0-70.16448-30.35648-70.16448-67.80928 0-37.44256 31.42144-67.80928 70.16448-67.80928l561.1776 0c38.72768 0 70.144 30.36672 70.144 67.80928C1025.82784 356.31615999999997 994.41664 386.67264 955.68384 386.67264zM955.68384 115.44064000000003L394.50624 115.44064000000003c-38.73792 0-70.16448-30.3616-70.16448-67.80928 0-37.44256 31.42144-67.76832 70.16448-67.76832l561.1776 0c38.72768 0 70.144 30.33088 70.144 67.76832C1025.82784 85.07903999999996 994.41664 115.44064000000003 955.68384 115.44064000000003z"  horiz-adv-x="1026" />

    
    <glyph glyph-name="icon_zuixiaohua" unicode="&#58966;" d="M377.088 833.792c24.896 0 45.12-20.288 45.12-45.248v-262.592c0-32-19.072-51.136-51.008-51.136H109.184a45.248 45.248 0 0 0 0 90.496h160.96L76.992 758.784a43.968 43.968 0 0 0 0 61.952 44.544 44.544 0 0 0 61.888 0l193.024-193.6V788.544c0 24.96 20.288 45.248 45.184 45.248zM692.096 788.544v-161.408l193.024 193.6a44.544 44.544 0 0 0 61.888 0 43.968 43.968 0 0 0 0-61.952L753.92 565.248h160.96a45.248 45.248 0 0 0-0.064-90.432h-261.952c-31.936 0-51.008 19.136-51.008 51.136V788.544c0 24.96 20.224 45.248 45.12 45.248s45.12-20.288 45.12-45.248zM331.904-20.544v161.408L138.88-52.736a44.544 44.544 0 0 0-61.888 0 43.968 43.968 0 0 0 0 61.952l193.088 193.536H109.184a45.248 45.248 0 0 0 0 90.432h261.952c31.936 0 51.008-19.136 51.008-51.136v-262.592c0-24.96-20.224-45.248-45.12-45.248a45.248 45.248 0 0 0-45.12 45.248zM646.912-65.792a45.248 45.248 0 0 0-45.12 45.248v262.592c0 32 19.072 51.136 51.008 51.136h261.952a45.248 45.248 0 0 0 0-90.496h-160.96l193.088-193.536c17.024-17.024 17.024-44.8 0-61.952a44.544 44.544 0 0 0-61.888 0L691.968 140.8v-161.408a45.056 45.056 0 0 0-45.056-45.184z"  horiz-adv-x="1024" />

    
    <glyph glyph-name="fanxuan" unicode="&#58900;" d="M996.891022 437.056a31.708444 31.708444 0 0 1-22.495289 9.319822 31.709867 31.709867 0 0 1-22.496711-9.319822L727.067022 213.12l-101.056 100.736a31.8336 31.8336 0 0 1-22.528 9.299911 31.835022 31.835022 0 0 1-22.529422-9.301333l-14.974578-14.910578a31.580444 31.580444 0 0 1-9.309866-22.432711c0-8.763733 3.5584-16.696889 9.309866-22.431289l134.976-134.464c10.24-10.24 25.6-11.52 37.632-4.864a30.700089 30.700089 0 0 1 19.332267 9.555911L1011.8656 377.216a31.900444 31.900444 0 0 1 9.210311 22.465422 31.891911 31.891911 0 0 1-9.152 22.404267l-15.032889 14.970311z m80.257422 247.808h-90.688l-1.409422 95.552C984.905956 844.282311 933.098667 896 869.212444 896h-584.192C221.147022 896 169.352533 844.2752 169.244444 780.425956v-581.705956c0.109511-63.894756 51.931022-115.648 115.84-115.648h92.352v-95.488c0.145067-63.867733 51.952356-115.585422 115.84-115.585422H1077.404444c63.908978 0 115.731911 51.754667 115.841423 115.638044V569.214578c-0.109511 63.893333-51.931022 115.648-115.841423 115.648h-0.2688l0.0128 0.001422zM377.436444 569.216v-408.384H316.764444c-38.341689 0-69.431467 31.045689-69.505422 69.367467V748.928c0 38.270578 31.169422 69.376 69.632 69.376H837.532444c38.4 0 69.568-31.105422 69.568-69.376l1.6-64.064H493.275022c-63.908978 0-115.730489-51.754667-115.84-115.638044l0.001422-0.009956zM1117.084444 15.488c-0.036978-35.670756-28.963556-64.574578-64.641422-64.574578h-533.632c-35.690667 0-64.631467 28.895289-64.704 64.568889V541.441422c0.035556 35.670756 28.962133 64.576 64.638578 64.576h533.696c35.676444 0 64.603022-28.903822 64.64-64.573155v-525.954845l0.002844-0.001422z"  horiz-adv-x="1534" />

    
    <glyph glyph-name="quanxuan1" unicode="&#58915;" d="M366.964267 823.828267L198.0064 654.8704l-90.413867 90.413867c-9.998933 9.998933-26.206933 9.997867-36.203733 0s-9.997867-26.205867 0-36.203734l108.510933-108.510933a25.480533 25.480533 0 0 1 13.217067-7.034667 25.717333 25.717333 0 0 1 4.8896-0.468266 25.525333 25.525333 0 0 1 18.1024 7.4976l187.060267 187.0592c9.997867 9.997867 9.997867 26.206933 0 36.203733-9.998933 9.997867-26.206933 9.997867-36.2048 0.001067zM366.964267 495.294933L198.0064 326.337067l-90.413867 90.413866c-9.998933 9.997867-26.206933 9.997867-36.203733 0s-9.997867-26.206933 0-36.203733L179.904 272.030933A25.5168 25.5168 0 0 1 198.0064 264.533333a25.525333 25.525333 0 0 1 18.1024 7.4976l187.060267 187.0592c9.997867 9.997867 9.997867 26.206933 0 36.203734-9.998933 9.997867-26.206933 9.997867-36.2048 0.001066zM366.964267 166.7616L198.0064-2.196267l-90.413867 90.414934c-9.998933 9.997867-26.206933 9.997867-36.203733 0s-9.997867-26.205867 0-36.203734L179.904-56.501333a25.5296 25.5296 0 0 1 6.197333-4.568534 25.584 25.584 0 0 1 11.905067-2.929066 25.5232 25.5232 0 0 1 18.1024 7.4976l187.060267 187.0592c9.997867 9.997867 9.997867 26.205867 0 36.203733-9.998933 9.997867-26.206933 9.997867-36.2048 0zM483.2 678.064h442.666667c18.8512 0 34.133333 15.282133 34.133333 34.133333s-15.282133 34.133333-34.133333 34.133334H483.2c-18.8512 0-34.133333-15.282133-34.133333-34.133334s15.282133-34.133333 34.133333-34.133333zM925.866667 89.264H483.2c-18.8512 0-34.133333-15.282133-34.133333-34.133333s15.282133-34.133333 34.133333-34.133334h442.666667c18.8512 0 34.133333 15.282133 34.133333 34.133334s-15.282133 34.133333-34.133333 34.133333zM925.866667 417.797333H483.2c-18.8512 0-34.133333-15.282133-34.133333-34.133333s15.282133-34.133333 34.133333-34.133333h442.666667c18.8512 0 34.133333 15.282133 34.133333 34.133333s-15.282133 34.133333-34.133333 34.133333z"  horiz-adv-x="1024" />

    
    <glyph glyph-name="daoxu" unicode="&#59054;" d="M909.49-43.854c24.294 0 43.99 19.605 43.989 43.787 0 24.195-19.695 43.793-43.99 43.793H469.545c-24.3 0-43.99-19.605-43.99-43.793 0-24.189 19.689-43.787 43.99-43.787H909.49m0 0M733.505 481.628c24.291 0 43.995 19.605 43.995 43.794 0 24.188-19.696 43.787-43.995 43.787H469.552c-24.294 0-43.998-19.605-43.998-43.787 0-24.197 19.696-43.794 43.998-43.794h263.953m0 0M645.518 744.374c24.293 0 43.998 19.605 43.996 43.787 0 24.188-19.696 43.793-43.997 43.793H469.545c-24.287 0-43.99-19.605-43.99-43.793 0-24.189 19.696-43.787 43.99-43.787h175.973m0 0M821.496 218.884c24.307 0 43.996 19.612 43.996 43.793 0 24.189-19.701 43.794-43.996 43.794H469.545c-24.307 0-43.99-19.61-43.99-43.794 0-24.187 19.696-43.793 43.99-43.793h351.951m0 0M363.277-38.669a35.861 35.861 0 0 1 3.563 15.57h0.022V792.385c0 21.854-19.917 39.568-44.491 39.568-24.571 0.008-44.494-17.714-44.494-39.568v-719.119l-130.31 115.906c-17.374 15.454-45.546 15.454-62.92 0-17.375-15.455-17.368-40.51 0-55.966 0 0 204.44-182.666 206.266-184.29a43.088 43.088 0 0 1 5.822-4.349 46.058 46.058 0 0 1 10.712-4.951c15.672-4.952 33.843-1.859 46.387 9.301 4.137 3.678 7.276 7.905 9.443 12.414m0 0"  horiz-adv-x="1024" />

    
    <glyph glyph-name="zhengxu" unicode="&#59055;" d="M909.49 831.953H469.545c-24.301 0-43.99-19.597-43.99-43.787 0-24.188 19.69-43.793 43.99-43.793h439.943c24.296 0 43.99 19.597 43.99 43.793 0.002 24.182-19.694 43.787-43.988 43.787m0 0M733.505 306.471H469.552c-24.301 0-43.998-19.597-43.998-43.794 0-24.182 19.704-43.787 43.998-43.787h263.953c24.298 0 43.995 19.599 43.995 43.787 0 24.189-19.703 43.794-43.995 43.794m0 0M645.518 43.725H469.545c-24.294 0-43.99-19.597-43.99-43.787 0-24.188 19.704-43.793 43.99-43.793h175.971c24.301 0 43.997 19.605 43.997 43.793 0.002 24.182-19.703 43.787-43.995 43.787m0 0M821.496 569.215H469.545c-24.294 0-43.99-19.606-43.99-43.793 0-24.184 19.683-43.794 43.99-43.794h351.951c24.296 0 43.996 19.605 43.996 43.794 0 24.181-19.689 43.793-43.996 43.793m0 0M363.277 807.952c-2.167 4.509-5.307 8.736-9.443 12.415-12.545 11.159-30.716 14.253-46.387 9.3a46.058 46.058 0 0 1-10.712-4.951 43.32 43.32 0 0 1-5.822-4.349c-1.826-1.624-206.266-184.29-206.266-184.29-17.368-15.456-17.375-40.511 0-55.966 17.374-15.454 45.546-15.454 62.92 0l130.31 115.906v-719.119c0-21.854 19.923-39.576 44.494-39.568 24.574 0 44.491 17.714 44.491 39.568V792.382h-0.022a35.836 35.836 0 0 1-3.563 15.57m0 0"  horiz-adv-x="1024" />

    
    <glyph glyph-name="quanxuan" unicode="&#58992;" d="M907.898658 684.866094h-90.684599l-1.409002 95.552794C815.659907 844.283845 763.853088 896 699.963721 896H115.774645C51.903586 896 0.108754 844.277743 0 780.430875v-581.709755c0.108754-63.895251 51.927777-115.647584 115.841336-115.647584h92.347505v-95.486322c0.14515-63.864957 51.951969-115.587214 115.841336-115.587214h584.128487c63.907456 0 115.732364 51.758436 115.841336 115.6417V569.218292c-0.108972 63.895469-51.93388 115.647802-115.841336 115.647802h-0.271993 0.011987zM208.188841 569.218292v-408.383093H147.51675c-38.339679 0-69.428609 31.046431-69.501183 69.36802V748.930687c0 38.273206 31.167607 69.374123 69.628244 69.374123h520.644495c38.400049 0 69.567656-31.100917 69.567657-69.374123l1.596433-64.064593H324.030177c-63.907456 0-115.732364-51.752333-115.841336-115.635597v-0.012205z m630.910192-192.000245L584.062015 123.202963c-5.182469-4.982833-12.118508-8.175918-19.786618-8.568869-2.938963-2.515717-8.333055-4.075972-14.090022-4.075972-8.581074 0-16.351835 3.459193-21.999831 9.064908l-134.968676 134.460651c-5.751083 5.732993-9.312927 13.666994-9.312926 22.429396 0 8.768505 3.561844 16.696403 9.312926 22.435281l14.972909 14.912539c5.775056 5.74498 13.733249 9.300722 22.525946 9.300722 8.798799 0 16.756991-3.555742 22.532047-9.300722l101.055858-100.735263 224.830976 223.936101c5.744762 5.750865 13.690968 9.312709 22.465357 9.312709 8.774607 0 16.71471-3.555742 22.465575-9.312709l15.0396-14.979229c5.690494-5.762852 9.203955-13.690968 9.203955-22.429179 0-8.744313-3.513461-16.672211-9.210058-22.43528z"  horiz-adv-x="1024" />

    
    <glyph glyph-name="tuichu" unicode="&#58888;" d="M731.428571 310.857143h-292.571428c-43.885714 0-73.142857 29.257143-73.142857 73.142857s29.257143 73.142857 73.142857 73.142857h292.571428v219.428572l292.571429-292.571429-292.571429-292.571429v219.428572z m-146.285714-292.571429c43.885714 0 73.142857-29.257143 73.142857-73.142857s-29.257143-73.142857-73.142857-73.142857h-365.714286c-124.342857 0-219.428571 95.085714-219.428571 219.428571v585.142858c0 124.342857 95.085714 219.428571 219.428571 219.428571h365.714286c43.885714 0 73.142857-29.257143 73.142857-73.142857s-29.257143-73.142857-73.142857-73.142857h-365.714286c-43.885714 0-73.142857-29.257143-73.142857-73.142857v-585.142858c0-43.885714 29.257143-73.142857 73.142857-73.142857h365.714286z"  horiz-adv-x="1024" />

    
    <glyph glyph-name="shaixuanguolv" unicode="&#58891;" d="M874.4 676.8L576 319.2v-208c0-4.8-2.4-9.6-5.6-12.8l-96-78.4c-10.4-8.8-26.4-0.8-26.4 12.8V319.2L149.6 676.8c-8.8 10.4-1.6 26.4 12 26.4h700c13.6 0 21.6-16 12.8-26.4z"  horiz-adv-x="1024" />

    
    <glyph glyph-name="wenjian" unicode="&#59039;" d="M788.48-76.8h-552.96c-67.584 0-122.88 54.784-122.88 122.88V721.408c0 32.768 12.8 64 35.84 87.04s54.272 35.84 87.04 35.84h394.752c10.752 2.048 22.016-0.512 30.208-8.704l239.616-239.616c5.12-5.12 8.192-11.776 9.216-18.944 1.024-3.072 1.536-6.144 1.536-9.216V46.08c0-32.768-12.8-64-35.84-87.04s-54.272-35.84-86.528-35.84z m-122.88 811.52v-136.192h136.192l-136.192 136.192z m184.32-197.632h-215.04c-16.896 0-30.72 13.824-30.72 30.72v215.04h-368.64c-16.384 0-31.744-6.656-43.52-17.92-11.264-11.264-17.92-27.136-17.92-43.52V46.08c0-16.384 6.656-31.744 17.92-43.52s27.136-17.92 43.52-17.92h552.96c16.384 0 31.744 6.656 43.52 17.92 11.264 11.264 17.92 27.136 17.92 43.52v491.008z m0 0"  horiz-adv-x="1024" />

    
    <glyph glyph-name="qingkong" unicode="&#58942;" d="M128 512H64V832h320v-64H128v-256z m832 0h64V832h-320v-64h256v-256zM128 192H64v-320h320v64H128v256z m832 0h64v-320h-320v64h256v256z m-280.256 341.056l45.248-45.248L589.248 352l135.744-135.744-45.248-45.248L544 306.75199999999995l-135.744-135.744-45.248 45.248L498.752 352 362.944 487.744l45.248 45.248L544 397.248z"  horiz-adv-x="1024" />

    
    <glyph glyph-name="zhankai" unicode="&#59232;" d="M480 416V704h64v-288H832v-64H544V64h-64V352H192v64h288zM512-128A512 512 0 1 0 512 896a512 512 0 0 0 0-1024z m0 64A448 448 0 1 1 512 832a448 448 0 0 1 0-896z"  horiz-adv-x="1024" />

    
    <glyph glyph-name="normal" unicode="&#59239;" d="M396.928 650.496L623.36 401.472a32 32 0 0 0 8.32-21.568v-278.72a32 32 0 0 1 54.656-22.656l49.344 49.344a32 32 0 0 1 9.344 22.656V379.904a32 32 0 0 0 8.32 21.568l226.432 248.96a32 32 0 0 1-23.68 53.568H420.608a32 32 0 0 1-23.68-53.504zM258.88 248.192h92.416a25.6 25.6 0 0 0 18.24-43.584L238.72 71.744a25.6 25.6 0 0 0-36.48 0l-130.88 132.864a25.6 25.6 0 0 0 18.24 43.52h92.48V665.6a38.4 38.4 0 0 0 76.8 0v-417.408z"  horiz-adv-x="1024" />

    
    <glyph glyph-name="normal1" unicode="&#59240;" d="M182.08 519.808H89.6a25.6 25.6 0 0 0-18.24 43.584L202.24 696.256a25.6 25.6 0 0 0 36.48 0l130.816-132.864a25.6 25.6 0 0 0-18.24-43.52H258.88V102.4a38.4 38.4 0 0 0-76.8 0V519.808zM396.928 650.496L623.36 401.472a32 32 0 0 0 8.32-21.568v-278.72a32 32 0 0 1 54.656-22.656l49.344 49.344a32 32 0 0 1 9.344 22.656V379.904a32 32 0 0 0 8.32 21.568l226.432 248.96a32 32 0 0 1-23.68 53.568H420.608a32 32 0 0 1-23.68-53.504z"  horiz-adv-x="1024" />

    
    <glyph glyph-name="zuidahua" unicode="&#58907;" d="M109.12 472.832A45.248 45.248 0 0 0 64 518.08V780.672c0 32 19.072 51.136 51.008 51.136H376.96a45.248 45.248 0 0 0 0.064-90.432h-160.96L409.152 547.84c17.024-17.024 17.024-44.8 0-61.952a44.544 44.544 0 0 0-61.888 0l-192.96 193.6V518.08c0-24.96-20.288-45.248-45.184-45.248z m760.576 45.248V679.488l-193.024-193.6a44.544 44.544 0 0 0-61.888 0 43.968 43.968 0 0 0 0 61.952l193.088 193.536h-160.96a45.248 45.248 0 0 0 0 90.496h261.952c32.064-0.064 51.136-19.2 51.136-51.2V518.08a45.248 45.248 0 1 0-90.304 0zM154.304 246.016v-161.408l193.024 193.6a44.544 44.544 0 0 0 61.888 0 43.968 43.968 0 0 0 0-61.952L216.128 22.72h160.96a45.248 45.248 0 0 0 0-90.496h-262.08c-31.936 0.064-51.008 19.2-51.008 51.2V246.016a45.184 45.184 0 1 0 90.304 0zM914.88 291.2c24.896 0 45.12-20.224 45.12-45.184v-262.592c0-32-19.072-51.136-51.008-51.136H647.04a45.248 45.248 0 0 0 0 90.496H808L614.912 216.32a43.968 43.968 0 0 0 0 61.952 44.544 44.544 0 0 0 61.888 0l193.024-193.6V246.08a44.992 44.992 0 0 0 45.056 45.12z"  horiz-adv-x="1024" />

    
    <glyph glyph-name="delete" unicode="&#58880;" d="M512-128C229.229714-128 0 101.22971399999994 0 384 0 666.7702859999999 229.229714 896 512 896 794.770286 896 1024 666.7702859999999 1024 384 1024 101.22971399999994 794.770286-128 512-128ZM768.146286 590.848L716.434286 642.633143 509.586286 435.712 302.665143 642.633143 250.953143 590.848 457.874286 384 250.953143 177.07885699999997 302.665143 125.36685699999998 509.586286 332.288 716.434286 125.36685699999998 768.146286 177.07885699999997 561.298286 384 768.146286 590.848Z"  horiz-adv-x="1024" />

    


  </font>
</defs>
</svg>
