<?xml version="1.0" standalone="no"?>
<!DOCTYPE svg PUBLIC "-//W3C//DTD SVG 1.1//EN" "http://www.w3.org/Graphics/SVG/1.1/DTD/svg11.dtd" >
<!--
2013-9-30: Created.
-->
<svg>
<metadata>
Created by iconfont
</metadata>
<defs>

<font id="iconflow" horiz-adv-x="1024" >
  <font-face
    font-family="iconflow"
    font-weight="500"
    font-stretch="normal"
    units-per-em="1024"
    ascent="896"
    descent="-128"
  />
    <missing-glyph />
    
    <glyph glyph-name="x" unicode="x" horiz-adv-x="1001"
d="M281 543q-27 -1 -53 -1h-83q-18 0 -36.5 -6t-32.5 -18.5t-23 -32t-9 -45.5v-76h912v41q0 16 -0.5 30t-0.5 18q0 13 -5 29t-17 29.5t-31.5 22.5t-49.5 9h-133v-97h-438v97zM955 310v-52q0 -23 0.5 -52t0.5 -58t-10.5 -47.5t-26 -30t-33 -16t-31.5 -4.5q-14 -1 -29.5 -0.5
t-29.5 0.5h-32l-45 128h-439l-44 -128h-29h-34q-20 0 -45 1q-25 0 -41 9.5t-25.5 23t-13.5 29.5t-4 30v167h911zM163 247q-12 0 -21 -8.5t-9 -21.5t9 -21.5t21 -8.5q13 0 22 8.5t9 21.5t-9 21.5t-22 8.5zM316 123q-8 -26 -14 -48q-5 -19 -10.5 -37t-7.5 -25t-3 -15t1 -14.5
t9.5 -10.5t21.5 -4h37h67h81h80h64h36q23 0 34 12t2 38q-5 13 -9.5 30.5t-9.5 34.5q-5 19 -11 39h-368zM336 498v228q0 11 2.5 23t10 21.5t20.5 15.5t34 6h188q31 0 51.5 -14.5t20.5 -52.5v-227h-327z" />
    

    
    <glyph glyph-name="chexiao" unicode="&#58995;" d="M894.976 321.53599999999994q0-78.848-29.696-148.48t-81.408-123.392-121.856-88.064-151.04-41.472q-5.12-1.024-9.216-1.536t-9.216-0.512l-177.152 0q-17.408 0-34.304 6.144t-30.208 16.896-22.016 25.088-8.704 29.696 8.192 29.696 21.504 24.576 29.696 16.384 33.792 6.144l158.72-1.024q54.272 0 102.4 19.968t83.968 53.76 56.32 79.36 20.48 97.792q0 49.152-18.432 92.16t-50.688 76.8-75.264 54.784-93.184 26.112q-2.048 0-2.56-0.512t-2.56-0.512l-162.816 0 0-80.896q0-17.408-13.824-25.6t-44.544 10.24q-8.192 5.12-26.112 17.92t-41.984 30.208-50.688 36.864l-51.2 38.912q-15.36 12.288-26.624 22.016t-11.264 24.064q0 12.288 12.8 25.6t29.184 26.624q18.432 15.36 44.032 35.84t50.688 39.936 45.056 35.328 28.16 22.016q24.576 17.408 39.936 7.168t16.384-30.72l0-81.92 162.816 0q5.12 0 10.752-1.024t10.752-2.048q79.872-8.192 149.504-41.984t121.344-87.552 80.896-123.392 29.184-147.456z"  horiz-adv-x="1024" />

    
    <glyph glyph-name="zhongzuo" unicode="&#58994;" d="M108.544 323.58399999999995q0 77.824 29.184 147.456t80.896 123.392 121.344 87.552 149.504 41.984q10.24 3.072 21.504 3.072l162.816 0 0 81.92q1.024 20.48 16.384 30.72t39.936-7.168q7.168-5.12 27.648-20.992t45.568-35.84 50.688-40.448 44.032-35.84q16.384-13.312 28.672-26.624t12.288-25.6q0-14.336-10.752-24.064t-26.112-22.016l-51.2-38.912q-26.624-19.456-50.688-36.864t-42.496-30.208-26.624-16.896q-15.36-9.216-26.112-11.776t-17.408 0.512-10.24 10.24-3.584 15.36l0 81.92-162.816 0-5.12 0q-50.176-5.12-93.184-26.112t-75.264-54.784-50.688-76.8-18.432-92.16q0-52.224 20.48-97.792t56.32-79.36 83.968-53.76 102.4-19.968l158.72 1.024q16.384 0 33.28-6.144t29.696-16.384 20.992-24.064 8.192-30.208q0-15.36-8.192-29.696t-22.016-24.576-30.72-16.384-33.28-6.144l-177.152 0-9.216 0q-4.096 0-9.216 1.024-80.896 7.168-151.04 41.472t-121.856 88.064-81.408 123.392-29.696 148.48z"  horiz-adv-x="1024" />

    
    <glyph glyph-name="zhizhen1" unicode="&#58882;" d="M868.992 276q-46.016 0.992-96-3.008-43.008-3.008-97.504-10.016t-111.488-22.016l147.008-243.008q10.016-19.008 11.488-39.008t-4.512-38.496-18.496-34.016-31.488-25.504q-18.016-10.016-38.016-11.488t-38.496 4.512-34.016 18.496-25.504 31.488l-123.008 272.992q-50.016-28.992-90.496-62.016t-69.504-62.016q-34.016-32.992-60-67.008l-2.016 816z"  horiz-adv-x="1024" />

    
    <glyph glyph-name="msnui-close-fat" unicode="&#58996;" d="M675.019 702.566l-485.38-485.38-111.358 111.376 485.38 485.38 111.376-111.358zM562.743 813.027c30.754 30.754 80.612 30.754 111.358 0s30.754-80.612 0-111.358M190.555 218.097c-30.754-30.734-80.62-30.734-111.376 0-30.734 30.754-30.734 80.612 0 111.358M562.394 218.44l-485.38 485.38 111.376 111.358 485.38-485.38-111.376-111.358zM672.838 330.731c30.754-30.754 30.754-80.612 0-111.358-30.754-30.734-80.612-30.734-111.376 0M77.91 702.918c-30.754 30.754-30.754 80.62-0.001 111.358 30.754 30.754 80.612 30.754 111.358 0z"  horiz-adv-x="1024" />

    
    <glyph glyph-name="close" unicode="&#58906;" d="M908.188-12.344c-31.149-31.15-82.136-31.15-113.203 0l-283.156 283.188-283.118-283.188c-31.15-31.15-82.061-31.15-113.211 0s-31.15 82.136 0 113.287l283.138 283.104-283.14 283.17c-31.226 30.991-31.226 81.977 0 113.127 31.15 31.15 82.061 31.15 113.211 0l283.118-283.121 283.157 283.121c31.067 31.15 82.054 31.15 113.203 0 31.067-31.15 31.067-82.136-0.083-113.127l-283.102-283.17 283.101-283.104c31.15-31.151 31.235-82.136 0.083-113.287z"  horiz-adv-x="1024" />

    
    <glyph glyph-name="wenjiantianjia" unicode="&#58969;" d="M143.104 51.136l0 515.2 181.248 0L324.352 739.264l353.28 0c12.096 0 21.888-10.688 21.888-23.744L699.52 442.88l99.648 0L799.168 802.176C799.104 818.688 785.728 832 769.344 832L286.72 832l-243.2-228.416 0-637.696C43.52-50.624 56.832-64 73.28-64l535.616 0 0 91.264L165.056 27.264C152.96 27.264 143.104 38.016 143.104 51.136zM980.48 238.848 826.752 238.848 826.752 384 670.656 384 670.656 238.848 517.056 238.848 517.056 86.528 670.656 86.528 670.656-64 826.752-64 826.752 86.528 980.48 86.528Z"  horiz-adv-x="1024" />

    
    <glyph glyph-name="tag" unicode="&#59129;" d="M256.064 556q0 30.272-21.44 51.712t-51.712 21.44-51.712-21.44-21.44-51.712 21.44-51.712 51.712-21.44 51.712 21.44 21.44 51.712zM865.792 226.848q0-30.272-21.12-51.456l-280.576-281.152q-22.272-21.12-52.032-21.12-30.272 0-51.456 21.12l-408.576 409.152q-21.696 21.12-36.864 57.728t-15.168 66.88l0 237.696q0 29.696 21.696 51.456t51.456 21.696l237.696 0q30.272 0 66.88-15.168t58.304-36.864l408.576-408q21.12-22.272 21.12-52.032z"  horiz-adv-x="1025" />

    
    <glyph glyph-name="baocun" unicode="&#58941;" d="M797.492708 831.355701l-42.913369 0 0-378.827955L308.210106 452.527746l0 378.827955L66.711889 831.355701 66.711889-61.346951l892.740514 0L959.452403 653.379217 797.492708 831.355701 797.492708 831.355701zM856.440262 6.178979 204.056977 6.178979 204.056977 385.001817l652.382261 0L856.439238 6.178979 856.440262 6.178979zM856.440262 6.178979M250.978636 339.227284l551.669488 0 0-70.961168L250.978636 268.266116 250.978636 339.227284 250.978636 339.227284zM250.978636 339.227284M250.978636 225.921705l551.669488 0 0-72.104201L250.978636 153.817504 250.978636 225.921705 250.978636 225.921705zM250.978636 225.921705M250.978636 114.903216l551.669488 0 0-70.952982L250.978636 43.950234 250.978636 114.903216 250.978636 114.903216zM250.978636 114.903216M580.608076 830.209598l103.007025 0 0-303.285444L580.608076 526.924153 580.608076 830.209598 580.608076 830.209598zM580.608076 830.209598"  horiz-adv-x="1024" />

    
    <glyph glyph-name="refresh" unicode="&#58887;" d="M1011.53128473 469.77621528l-69.21093749-0.00656251c-30.0215625 219.39-218.175 388.408125-445.815 388.408125-86.893125 0-168.016875-24.645-236.80593751-67.2975-14.025-7.61625001-23.5471875-22.479375-23.54718749-39.5578125 0-24.8446875 20.1375-44.98125001 44.98124999-44.98124999 9.781875 0 18.8334375 3.133125 26.2153125 8.44312499 54.950625 33.9571875 119.7028125 53.57625001 189.0478125 53.57625001 177.931875 0 325.7015625-129.015 354.9271875-298.59375001l-77.2378125-0.0065625c-9.2934375 0-16.8309375-7.5375-16.83093749-16.8375 0-3.3065625 0.96-6.39 2.61187499-8.99156249l118.4775-205.16625001c2.9446875-4.9115625 8.3165625-8.2003125 14.4515625-8.2059375 6.016875 0.0065625 11.29125001 3.1621875 14.27156251 7.910625l0.06656249-0.00656249 118.4296875 205.17937499c1.7690625 2.6625 2.80124999 5.859375 2.80125001 9.30562501 0.00374999 9.2925-7.53375001 16.83-16.8346875 16.83v0zM1011.53128473 469.77621528zM746.18256295 125.20078124999998c-11.1796875 0-21.3336914-4.35673828-28.88085938-11.44335938-0.04482422 0.04482422-0.07382811 0.07822266-0.07382812 0.07822266-56.43896484-42.39140625-126.58535156-67.51582031-202.6116211-67.51582031-186.49335938 0-337.67314453 151.17978516-337.67314453 337.67753908 0 2.92060547 0.05185547 5.82802734 0.12480469 8.73105467l73.06171874-0.00615235c8.71787109 0 15.78427734 7.04882813 15.78427735 15.76142579 0 3.22382813-0.96767578 6.2279297-2.62441406 8.72314453l-111.02783205 192.35478515-0.06240233-0.00615234c-2.79492188 4.45166015-7.73964844 7.41621094-13.38134764 7.41621094-5.75332031-0.00615234-10.79384766-3.08320311-13.54833986-7.69482422l-0.01142578 0.00615234-111.06650391-192.3477539c-1.54511719-2.43896484-2.44511719-5.3296875-2.44511718-8.43134766 0-8.71787109 7.06640625-15.76669922 15.7790039-15.76669922l65.42226563-0.00615234c-0.05712891-2.90214845-0.10107421-5.81044922-0.10107422-8.73105469 0-233.00332031 188.87431641-421.87851564 421.87148438-421.87851562 96.04160155 0 184.57470702 32.11171875 255.48574218 86.15917968 1.09160156 0.75673828 2.14892578 1.56708983 3.16318361 2.41962891 0.29443359 0.23291017 0.59414063 0.45351563 0.89384763 0.68466798 0.00615234 0.01142578 0 0.03339844-0.01757812 0.08085936 8.6783203 7.72822266 14.14423828 18.97822265 14.14423829 31.51669922 0.00615234 23.31386719-18.89033204 42.21386719-42.20419922 42.21386719v0zM746.18256295 125.20078124999998z"  horiz-adv-x="1231" />

    
    <glyph glyph-name="youxiashixin" unicode="&#59063;" d="M97.419 191.661c98.598 0 420.117-0.058 552.16-0.058 51.299 0 55.136 28.019 55.136 56.482 0 125.133-0.074 424.154-0.074 553.608 0 36.054-34.471 33.304-49.16 20.734-104.078-104.078-476.528-472.53-578.403-574.406-22.861-25.312-12.333-56.36 20.341-56.36z"  horiz-adv-x="1024" />

    
    <glyph glyph-name="paizhaoanniu" unicode="&#59069;" d="M512 888.123077C234.023385 888.123077 7.876923 661.976615 7.876923 384s226.146462-504.123077 504.123077-504.123077 504.123077 226.146462 504.123077 504.123077S789.976615 888.123077 512 888.123077zM512-41.353846c-234.543262 0-425.353846 190.810585-425.353846 425.353846s190.810585 425.353846 425.353846 425.353846 425.353846-190.810585 425.353846-425.353846S746.543262-41.353846 512-41.353846zM512 777.846154c-217.513354 0-393.846154-176.3328-393.846154-393.846154 0-217.513354 176.3328-393.846154 393.846154-393.846154 217.513354 0 393.846154 176.3328 393.846154 393.846154C905.846154 601.513354 729.513354 777.846154 512 777.846154z"  horiz-adv-x="1024" />

    
    <glyph glyph-name="huizhang" unicode="&#58897;" d="M622.473 863.584h-399.141c-21.020 0-38.329-17.235-38.329-38.48v-152.979c0-21.207 13.995-48.558 31.248-60.996l172.837-124.543c6.294-4.533 12.177-6.444 17.085-6.070 2.21-0.374 4.496-0.599 6.819-0.599h191.61c3.072 0 6.070 0.374 8.937 1.049 5.377-1.461 12.195 0.299 19.615 5.619l172.837 124.543c17.253 12.439 31.248 39.79 31.248 60.996v152.979c0 21.245-17.311 38.48-38.33 38.48h-176.435zM568.67 796.366c0 15.924 12.777 28.85 28.774 28.85 15.886 0 28.774-12.777 28.774-28.85v-249.197c0-15.962-12.777-28.887-28.774-28.887-15.886 0-28.774 12.814-28.774 28.887v249.197zM396.019 796.366c0 15.924 12.777 28.85 28.774 28.85 15.886 0 28.774-12.777 28.774-28.85v-249.197c0-15.962-12.777-28.887-28.774-28.887-15.887 0-28.774 12.814-28.774 28.887v249.197zM511.119-95.584c148.334 0 268.567 120.231 268.567 268.566 0 148.333-120.233 268.565-268.567 268.565-148.334 0-268.566-120.234-268.566-268.565 0-148.335 120.234-268.566 268.566-268.566z"  horiz-adv-x="1024" />

    
    <glyph glyph-name="hrgongzuotai" unicode="&#58880;" d="M938.749 896 86.244 896C39.16 896 0.993 857.824 0.993 810.74l0-682.002c0-47.084 38.167-85.26 85.251-85.26L341.99 43.478l0-85.243-85.251 0 0-85.251 511.508 0 0 85.251-85.251 0 0 85.243 255.754 0c47.093 0 85.251 38.176 85.251 85.26L1024.001 810.74C1024 857.824 985.841 896 938.749 896zM597.752 725.489l255.745 0 0-255.745-85.251 0 0 85.251-85.251 0 0-85.251-85.243 0L597.752 725.489zM171.487 725.489l85.251 0 0-85.243 85.251 0 0 85.243 85.251 0 0-255.745L341.99 469.744l0 85.251-85.251 0 0-85.251-85.251 0L171.488 725.489zM938.749 213.99 86.244 213.99l0 85.251 852.505 0L938.749 213.99z"  horiz-adv-x="1024" />

    
    <glyph glyph-name="tingzhi-copy" unicode="&#58889;" d="M932 71.040c0-59.1-48-107.040-107.16-107.040h-625.68c-59.16 0-107.16 47.94-107.16 107.040v625.92c0 59.1 48 107.040 107.16 107.040h625.68c59.16 0 107.16-47.94 107.16-107.040v-625.92z"  horiz-adv-x="1024" />

    
    <glyph glyph-name="wenjianjia" unicode="&#59296;" d="M861.040535-7.894551c0-30.909987-25.074072-55.877635-55.924707-55.877635l-698.703239 0 97.848539 461.131449c0 30.879288 24.919553 55.906288 55.770188 55.906288L902.95925 453.26555c30.855752 0 55.828516-25.027 55.828516-55.906288L861.040535-7.894551 861.040535-7.894551 861.040535-7.894551zM218.161718 495.207801l628.870778 0L847.032496 550.098969c0 30.879288-25.076118 55.906288-55.877635 55.906288L455.787744 606.005256l0 50.658773c0 30.827099-25.027 55.877635-55.877635 55.877635L120.367415 712.541665c-30.855752 0-55.877635-25.050536-55.877635-55.877635l0-664.558581 97.747231 447.175599C162.237011 470.162382 187.311083 495.207801 218.161718 495.207801L218.161718 495.207801 218.161718 495.207801zM218.161718 495.207801"  horiz-adv-x="1024" />

    
    <glyph glyph-name="webtubiaoku08" unicode="&#58947;" d="M588.053 859.785c-15.787 7.36-34.346 4.907-47.68-6.187l-257.386-214.239-205.333 0.853c-11.786 0-23.147-4.693-31.52-13.013-8.426-8.374-13.226-19.733-13.226-31.68l-0.907-422.826c0-11.947 4.693-23.36 13.013-31.787 8.374-8.426 19.787-13.174 31.733-13.174h207.573l256.106-213.386c8.16-6.773 18.454-10.346 28.693-10.346 6.4 0 12.907 1.44 18.934 4.267 15.787 7.307 25.76 23.093 25.76 40.48v870.505c0 17.387-10.027 33.12-25.76 40.533v0 0 0zM761.546 635.999c-22.027 10.453-48.266 0.907-59.040-21.013-10.72-22.027-1.44-48.693 20.426-59.733 2.827-1.493 69.92-36.32 69.92-135.573 0-105.973-62.72-205.92-64.8-207.093-22.133-11.093-31.093-38.027-20.053-60.053 7.894-15.787 23.68-24.8 40.16-24.8 6.667 0 13.547 1.493 19.894 4.693 4.693 2.4 114.293 123.947 114.293 287.253 0.053 157.653-115.893 213.973-120.8 216.32v0 0 0zM900.852 767.412c-20.64 13.28-48 7.253-61.493-13.387-13.44-20.587-7.52-48.32 13.013-61.867 4.8-3.2 119.467-81.28 119.467-275.733 0-194.88-110.027-337.973-114.347-340.959-20.64-13.76-26.134-41.44-12.427-62.080 8.64-12.907 22.826-19.894 37.28-19.894 8.48 0 17.173 2.453 24.8 7.52 6.293 4.213 154.239 170.453 154.239 415.413 0 245.439-153.92 346.826-160.533 350.986v0 0 0z"  horiz-adv-x="1099" />

    
    <glyph glyph-name="database" unicode="&#59202;" d="M512 457.142857q135.428571 0 253.142857 24.571429t185.714286 72.571429l0-97.142857q0-39.428571-58.857143-73.142857t-160-53.428571-220-19.714286-220 19.714286-160 53.428571-58.857143 73.142857l0 97.142857q68-48 185.714286-72.571429t253.142857-24.571429zm0-438.857143q135.428571 0 253.142857 24.571429t185.714286 72.571429l0-97.142857q0-39.428571-58.857143-73.142857t-160-53.428571-220-19.714286-220 19.714286-160 53.428571-58.857143 73.142857l0 97.142857q68-48 185.714286-72.571429t253.142857-24.571429zm0 219.428571q135.428571 0 253.142857 24.571429t185.714286 72.571429l0-97.142857q0-39.428571-58.857143-73.142857t-160-53.428571-220-19.714286-220 19.714286-160 53.428571-58.857143 73.142857l0 97.142857q68-48 185.714286-72.571429t253.142857-24.571429zm0 658.285714q118.857143 0 220-19.714286t160-53.428571 58.857143-73.142857l0-73.142857q0-39.428571-58.857143-73.142857t-160-53.428571-220-19.714286-220 19.714286-160 53.428571-58.857143 73.142857l0 73.142857q0 39.428571 58.857143 73.142857t160 53.428571 220 19.714286z"  horiz-adv-x="1024" />

    
    <glyph glyph-name="chajian1" unicode="&#58988;" d="M748.703 647.68c0 0-187.109-9.005-253.513-11.988-41.041-1.874-63.363 32.95-27.159 68.941 27.821 27.585 37.951 35.374 33.201 86.885-5.446 58.987-64.849 78.16-113.605 77.612-50.999-0.603-106.825-27.415-123.267-76.050-10.814-31.894-10.499-64.048 17.472-84.527 15.261-11.19 49.038-27.694 11.15-57.887-20.446-16.308-226.318 3.037-226.318 3.037s-9.070-175.646-2.615-225.681c3.69-28.751 39.511-42.205 62.983-11.107 36.206 47.923 136.307 16.655 141.372-77.426 5.325-98.703-100.665-113.915-123.29-75.415-21.118 35.98-81.445 44.93-84.060-0.958-4.047-71.451 29.62-298.799 29.62-298.799s135.318-31.766 196.307-21.997c28.332 4.588 41.338 53.169 15.077 75.984-24.156 20.962-29.221 133.023 96.846 120.151 98.637-10.073 82.162-95.579 57.063-111.199-24.143-14.973-22.994-61.635 27.182-74.895 68.656-18.193 276.918 26.67 276.918 26.67s-27.517 167.74-18.308 222.096c9.838 58.199 77.021 23.083 85.414 11.967 54.331-71.924 167.001-32.608 167.001 88.124 0 175.828-160.895 145.936-176.036 103.699-16.735-46.511-72.117-34.589-78.135-6.011-14.145 66.754 8.7 248.777 8.7 248.777z"  horiz-adv-x="1024" />

    
    <glyph glyph-name="caidan" unicode="&#58953;" d="M511.674077-24.975579M307.012837 623.118006C307.012837 604.279962 291.741016 589.00814 272.902972 589.00814L136.461463 589.00814C117.623419 589.00814 102.351598 604.279962 102.351598 623.118006L102.351598 759.559515C102.351598 778.397558 117.623419 793.66938 136.461463 793.66938l136.440485 0C291.741016 793.66938 307.012837 778.397558 307.012837 759.559515L307.012837 623.118006zM614.004697 623.118006C614.004697 604.279962 598.732875 589.00814 579.894831 589.00814L443.453323 589.00814C424.615279 589.00814 409.343457 604.279962 409.343457 623.118006L409.343457 759.559515C409.343457 778.397558 424.615279 793.66938 443.453323 793.66938l136.440485 0C598.732875 793.66938 614.004697 778.397558 614.004697 759.559515L614.004697 623.118006zM920.996556 623.118006C920.996556 604.279962 905.724735 589.00814 886.886691 589.00814L750.445182 589.00814C731.607138 589.00814 716.335317 604.279962 716.335317 623.118006L716.335317 759.559515C716.335317 778.397558 731.607138 793.66938 750.445182 793.66938l136.440485 0C905.724735 793.66938 920.996556 778.397558 920.996556 759.559515L920.996556 623.118006zM307.012837 316.126146C307.012837 297.288103 291.741016 282.016281 272.902972 282.016281L136.461463 282.016281C117.623419 282.016281 102.351598 297.288103 102.351598 316.126146L102.351598 452.567655c0 18.839067 15.271822 34.109866 34.109866 34.109866l136.440485 0C291.741016 486.677521 307.012837 471.405699 307.012837 452.567655L307.012837 316.126146zM614.004697 316.126146C614.004697 297.288103 598.732875 282.016281 579.894831 282.016281L443.453323 282.016281C424.615279 282.016281 409.343457 297.288103 409.343457 316.126146L409.343457 452.567655c0 18.839067 15.271822 34.109866 34.109866 34.109866l136.440485 0C598.732875 486.677521 614.004697 471.405699 614.004697 452.567655L614.004697 316.126146zM920.996556 316.126146C920.996556 297.288103 905.724735 282.016281 886.886691 282.016281L750.445182 282.016281C731.607138 282.016281 716.335317 297.288103 716.335317 316.126146L716.335317 452.567655c0 18.839067 15.271822 34.109866 34.109866 34.109866l136.440485 0C905.724735 486.677521 920.996556 471.405699 920.996556 452.567655L920.996556 316.126146zM307.012837 9.134287C307.012837-9.703757 291.741016-24.975579 272.902972-24.975579L136.461463-24.975579C117.623419-24.975579 102.351598-9.703757 102.351598 9.134287L102.351598 145.575796C102.351598 164.413839 117.623419 179.685661 136.461463 179.685661l136.440485 0C291.741016 179.685661 307.012837 164.413839 307.012837 145.575796L307.012837 9.134287zM614.004697 9.134287C614.004697-9.703757 598.732875-24.975579 579.894831-24.975579L443.453323-24.975579C424.615279-24.975579 409.343457-9.703757 409.343457 9.134287L409.343457 145.575796C409.343457 164.413839 424.615279 179.685661 443.453323 179.685661l136.440485 0C598.732875 179.685661 614.004697 164.413839 614.004697 145.575796L614.004697 9.134287zM920.996556 9.134287C920.996556-9.703757 905.724735-24.975579 886.886691-24.975579L750.445182-24.975579C731.607138-24.975579 716.335317-9.703757 716.335317 9.134287L716.335317 145.575796C716.335317 164.413839 731.607138 179.685661 750.445182 179.685661l136.440485 0C905.724735 179.685661 920.996556 164.413839 920.996556 145.575796L920.996556 9.134287z"  horiz-adv-x="1024" />

    
    <glyph glyph-name="wangluo" unicode="&#58923;" d="M928 128L928 443.84 544 443.84 544 640 640 640 640 896 384 896 384 640 480 640 480 443.84 96 443.84 96 128 0 128 0-128 256-128 256 128 160 128 160 379.84 480 379.84 480 128 384 128 384-128 640-128 640 128 544 128 544 379.84 864 379.84 864 128 768 128 768-128 1024-128 1024 128Z"  horiz-adv-x="1024" />

    
    <glyph glyph-name="dayin" unicode="&#58993;" d="M318.7-60h381.9c35.1 0 62.4 29.5 62.4 64.7V195H256v-190.3c0-35.2 27.6-64.7 62.7-64.7zM700.6 831H318.7c-35.1 0-62.7-27.4-62.7-62.6V579h507V768.4c0 35.2-27.3 62.6-62.4 62.6zM827 579v-65H192v65h-64.2C92.6 579 65 549 65 513.8v-445.5c0-35.2 27.6-64.3 62.8-64.3H192V259h635v-255h64.5c35.1 0 64.5 29.1 64.5 64.3V513.8c0 35.2-29.3 65.2-64.5 65.2H827z m0-194H637v65h190v-65z"  horiz-adv-x="1024" />

    
    <glyph glyph-name="xiantiao-xiexian" unicode="&#58881;" d="M886.1866666666666 805.44l45.12-54.72L133.54666666666665-38.39999999999998l-54.72 54.72L876.5866666666667 805.44h9.6z"  horiz-adv-x="1025" />

    
    <glyph glyph-name="user" unicode="&#59055;" d="M740.112 204.723c111.219-27.527 193.536-127.832 193.536-247.396v-29.725h-843.294v29.725c0 115.027 76.39 212.391 181.2 243.816 75.268 18.198 132.474 80.244 140.317 145.251-39.568 27.295-70.108 68.248-80.588 114.030l-36.077 157.614c-27.552 120.369 50.113 217.727 173.406 217.727h83.541c123.548 0 202.801-97.819 177.586-218.485l-32.631-156.155c-10.057-48.125-42.184-90.93-83.908-118.271 6.014-61.882 57.113-117.829 126.914-138.131z"  horiz-adv-x="1024" />

    
    <glyph glyph-name="kaishi" unicode="&#59136;" d="M892.981938 439.753222c46.461212-32.522848 46.461212-78.98406 0-111.506909l-669.041452-441.381513c-46.461212-32.522848-83.630181-9.292242-83.630181 46.461212v901.347511c0 55.753454 37.16897 78.98406 83.630181 46.461212l669.041452-441.381513z"  horiz-adv-x="1024" />

    
    <glyph glyph-name="hebing" unicode="&#58886;" d="M51.2 768h204.8c10.24-15.36 153.6-256 153.6-256l-51.2-102.4-153.6 256H51.2c-25.6 0-51.2 25.6-51.2 51.2s25.6 51.2 51.2 51.2zM1013.76 384L819.2 256c-15.36-15.36-35.84-15.36-51.2 0v102.4h-204.8l-204.8-358.4H51.2c-25.6 0-51.2 25.6-51.2 51.2s25.6 51.2 51.2 51.2h256l204.8 358.4h256v102.4c15.36 15.36 35.84 15.36 51.2 0l194.56-133.12c15.36-15.36 15.36-35.84 0-46.08z"  horiz-adv-x="1025" />

    
    <glyph glyph-name="liaotian" unicode="&#58907;" d="M360.25265131 388.98089003a55.19988984 55.19988984 0 0 0-54.35989102-55.91988808 55.19988984 55.19988984 0 0 0-54.35989101 55.91988808 55.19988984 55.19988984 0 0 0 54.35989101 55.97988839c29.99993994 0 54.35989102-25.07995019 54.35989102-55.97988839z m413.39917354 0a55.19988984 55.19988984 0 0 0-54.35989102-55.91988808 55.19988984 55.19988984 0 0 0-54.3598919 55.91988808 55.19988984 55.19988984 0 0 0 54.3598919 55.97988839c30.05994023 0 54.35989102-25.07995019 54.35989102-55.97988839z m-207.23958545 0a55.19988984 55.19988984 0 0 0-54.3598919-55.91988808 55.19988984 55.19988984 0 0 0-54.35989101 55.91988808 55.19988984 55.19988984 0 0 0 54.35989101 55.97988839c29.99993994 0 54.35989102-25.07995019 54.3598919-55.97988839zM499.33237328-65.9982c265.07946973 0 479.99903994 201.47959687 479.99903994 449.9991C979.33141323 632.52040313 764.41184301 834 499.33237328 834S19.33333334 632.52040313 19.33333334 384.0009c0-93.17981338 30.23993935-179.75964023 81.95983594-251.57949697L57.01325805-16.19829961000005c-8.51998271-28.43994287 8.21998388-46.31990713 37.19992587-39.95992002l184.43963057 40.37991944A503.87899219 503.87899219 0 0 1 499.33237328-65.9982z"  horiz-adv-x="1092" />

    
    <glyph glyph-name="dingshi" unicode="&#58931;" d="M511.94368 777.31328c-239.01184 0-434.51904-195.61984-434.51904-434.52416 0-238.8992 195.5072-434.72896 434.51904-434.72896 239.01696 0 434.62656 195.61472 434.62656 434.63168 0 239.0016-195.6096 434.62144-434.62656 434.62144z m182.57408-617.20576L468.4288 299.06944V559.89248h65.20832v-225.98144l195.5072-117.36576-34.62656-56.43776z m199.00928 494.02368l-154.84416 154.74176 51.07712 51.06688 154.73152-154.73664-50.96448-51.072zM77.42976 705.2032L232.16128 859.93984l51.072-51.06688L128.49664 654.1312l-51.06688 51.072z"  horiz-adv-x="1024" />

    
    <glyph glyph-name="xiejiantou" unicode="&#58885;" d="M845.871 776.903l53.338000000000015-53.385999999999996-780.1-787.387-53.338000000000015 53.385999999999996zM958.23 502.855l-329.015 329.01499999999993 329.015 5.684341886080802e-14z"  horiz-adv-x="1024" />

    
    <glyph glyph-name="peizhi" unicode="&#59000;" d="M1021.376 241.856c1.472-8.768 1.152-19.264-1.152-31.616-2.112-12.352-5.76-24.96-10.88-37.632-5.12-12.736-11.264-24.192-18.496-34.368-7.232-10.24-15.36-17.472-24-21.824-8.768-4.416-16.384-6.592-22.976-6.592-6.528 0-13.76 1.408-21.76 4.352-7.232 2.176-16.384 4.16-27.264 6.016-11.008 1.792-22.016 2.112-33.344 1.088-11.264-1.088-22.528-3.456-33.728-7.04s-20.992-9.856-28.864-18.56c-17.472-18.176-27.776-38.912-30.656-62.208s0.384-45.44 9.856-66.56c7.232-14.592 6.144-29.056-3.264-43.648-4.352-5.824-11.392-11.84-20.736-17.984-9.472-6.208-19.904-11.84-31.104-16.96s-23.104-9.088-35.52-12.032c-12.352-2.816-23.232-4.288-32.768-4.288-6.528 0-12.608 2.56-18.496 7.616-5.76 5.12-9.728 10.624-12.032 16.384h-1.088c-8 22.592-21.632 41.984-40.896 58.368s-41.6 24.576-67.136 24.576c-24.704 0-47.104-8.192-67.072-24.576-20.032-16.384-34.048-35.456-42.048-57.28-3.648-8.768-9.088-15.104-16.384-19.136-7.168-3.968-15.168-5.952-23.936-5.952-10.176 0-21.632 1.792-34.368 5.504-12.736 3.648-25.472 8.192-38.208 13.632s-24.192 11.84-34.368 19.136c-10.176 7.232-17.792 14.528-22.912 21.76-3.648 5.12-5.632 11.136-6.016 17.984-0.384 6.912 2.368 16.576 8.192 28.928 8 16.768 11.072 35.84 9.28 57.344-1.792 21.44-11.072 41.28-27.84 59.456-10.176 10.944-22.528 17.984-37.056 21.248-14.592 3.328-28.352 4.544-41.472 3.84-15.296-0.704-30.912-3.648-46.912-8.768-10.176-2.88-20.352-2.112-30.592 2.24-8 2.88-15.424 9.6-22.4 20.096-6.912 10.56-13.056 22.272-18.56 34.944A217.687 217.687 0 0 0 9.856 208.64c-2.88 13.44-3.648 24.512-2.176 33.28 2.176 16 9.408 26.176 21.824 30.528 21.824 8.768 41.408 23.104 58.88 43.136s26.176 42.368 26.176 67.136c0 25.408-8.704 47.616-26.176 66.56s-37.12 32.704-58.88 41.472c-6.4 2.048-11.84 7.296-16.192 15.68s-6.592 16.96-6.592 25.6c0 9.472 1.472 20.032 4.352 31.68s6.72 22.912 11.456 33.856c4.736 10.88 10.24 20.864 16.384 30.016 6.208 9.024 12.928 15.808 20.16 20.16 5.824 3.648 11.52 5.056 16.96 4.352 5.44-0.704 11.456-2.176 17.984-4.352 21.824-8.768 44.544-11.456 68.224-8.192 23.616 3.264 44.544 13.632 62.72 31.04 8.704 8.768 15.04 19.52 19.072 32.192 3.968 12.8 6.592 25.344 7.616 37.696 1.152 12.352 1.152 23.616 0 33.792-1.024 10.24-1.984 17.472-2.688 21.824-1.472 4.352-2.752 9.472-3.84 15.296s-0.512 10.944 1.6 15.296c4.352 10.176 12.16 19.072 23.488 26.688 11.264 7.616 23.424 14.016 36.544 19.136 13.12 5.056 25.856 8.832 38.208 11.456 12.352 2.56 22.208 3.84 29.44 3.84 9.408 0 16.896-3.072 22.4-9.28 5.44-6.208 9.216-12.608 11.392-19.136 8-19.648 21.12-36.864 39.296-51.84 18.176-14.912 39.68-22.4 64.384-22.4 25.472 0 48 7.104 67.648 21.312 19.648 14.208 33.472 32.192 41.472 54.016 2.88 5.824 7.488 11.84 13.632 17.984 6.144 6.208 12.48 9.28 19.136 9.28 10.112 0 21.248-1.408 33.28-4.352 12.032-2.88 23.872-6.912 35.392-12.032a133.501 133.501 0 0 0 32.256-19.648c9.856-8 17.6-16.704 23.488-26.176 3.648-5.824 4.736-12.16 3.264-19.072s-2.88-11.84-4.352-14.72c-9.472-21.12-12.352-43.264-8.768-66.56 3.648-23.232 14.272-43.648 31.616-61.12 17.472-17.472 38.976-27.072 64.384-28.928 25.472-1.792 49.152 2.368 70.976 12.544 5.76 3.648 12.864 5.12 21.248 4.352s15.36-4.032 21.248-9.792c10.88-10.176 20.48-25.664 28.864-46.4s14.016-41.664 16.896-62.72c1.472-12.352-0.512-22.016-5.888-28.928-5.504-6.848-11.136-11.456-17.024-13.632-22.528-8-41.728-22.016-57.728-41.984s-24-42.752-24-68.16c0-24.768 6.72-46.4 20.096-64.96 13.504-18.496 31.104-31.808 52.864-39.808 5.12-2.88 9.472-5.824 13.12-8.704 8-6.528 13.504-14.912 16.384-25.088zM514.048 143.68c32.704 0 63.68 6.208 92.672 18.56 29.12 12.352 54.4 29.44 75.904 51.264 21.504 21.888 38.4 47.104 50.752 75.84 12.352 28.736 18.496 59.52 18.496 92.16 0 32.768-6.144 63.488-18.496 92.16-12.352 28.736-29.248 53.888-50.752 75.328s-46.72 38.4-75.904 50.752c-28.992 12.352-60.032 18.56-92.672 18.56-32.704 0-63.488-6.208-92.224-18.56-28.672-12.352-53.824-29.312-75.2-50.752-21.44-21.44-38.4-46.592-50.752-75.328-12.352-28.672-18.56-59.456-18.56-92.16 0-32.704 6.208-63.424 18.56-92.16 12.352-28.672 29.312-53.952 50.752-75.84 21.44-21.824 46.592-38.848 75.264-51.264 28.736-12.352 59.456-18.56 92.16-18.56z m0 0"  horiz-adv-x="1024" />

    
    <glyph glyph-name="xiangmuzuhe" unicode="&#59506;" d="M265.7 463.004l224.396-109.612v257.39l-224.396 107.047v-254.828zM532.366 608.22v-255.153l221.458 107.047v256.086l-221.458-107.934zM512.838 852.002l-218.476-104.112 218.57-104.111 215.54 104.111-215.634 104.112zM0.108 25.072l224.349-109.612v257.39l-224.349 107.047v-254.828zM266.727 170.288v-255.153l221.458 107.047v256.085l-221.458-107.98zM247.246 414.072l-218.57-104.113 218.57-104.111 215.587 104.111-215.586 104.112zM535.814 25.073l224.348-109.612v257.389l-224.348 107.047v-254.828zM802.479 170.289v-255.153l221.411 107.047v256.084l-221.411-107.98zM782.905 414.072l-218.476-104.112 218.523-104.111 215.587 104.111-215.586 104.112z"  horiz-adv-x="1024" />

    
    <glyph glyph-name="xitongcanshupeizhi" unicode="&#59023;" d="M1185.44635 271.562123c-6.20083 10.753338-17.739083 16.483219-29.355828 15.776795H955.466199c-6.043847 0-11.616745-1.648322-16.48322-4.552508-5.337423-2.668712-9.968423-6.907254-13.186575-12.480151l-100.626128-174.251173c-4.631-8.006135-5.337423-17.111151-2.825694-25.274269 0.706424-2.433237 1.726813-4.866474 3.061169-7.142729l97.094009-168.207326c3.767593-13.343558 16.01227-23.154998 30.533201-23.154998h200.859798c12.323169-1.648322 24.960303 4.160051 31.632083 15.619813l99.527246 172.288885c2.354746 4.003067 3.689101 8.398593 4.081559 12.715626 2.197763 7.927643 1.334356 16.718694-3.061169 24.410862l-100.626128 174.251173z m-57.926741-317.18423H982.624264l-72.133706 124.958499L982.38879 203.74545h144.973836l72.133706-124.801515-71.976723-124.566042zM923.991099 503.34758c4.317034-12.40166 16.090761-21.349693 29.983761-21.349694h202.50812c1.098881 0 2.197763 0.078492 3.296643 0.156983 10.439372 0.470949 20.486287 6.122339 26.059185 15.855287l98.899314 171.50397c2.197763 3.767593 3.453627 7.77066 4.003068 11.773728 2.668712 8.24161 1.962288 17.503609-2.668712 25.588235L1185.995791 880.185364c-6.357813 10.988813-18.288524 16.718694-30.140744 15.698304H956.800554c-6.20083 0-11.930711-1.805305-16.797185-4.866474-5.494406-2.668712-10.282389-6.985745-13.500541-12.637135L826.504632 705.070784c-2.668712-4.631-4.003067-9.575965-4.238542-14.599422-0.470949-6.122339 0.863407-12.40166 4.160051-18.131541l97.564958-168.992241z m59.88903 310.590942h145.758751L1201.615603 689.607955l-72.369181-124.880007H983.644654L911.589439 689.058514l72.29069 124.880008zM843.92975 316.380781V447.304635c-21.663659-0.156983-43.641285 5.258932-63.735114 16.875676-60.595453 35.007218-81.160231 112.792313-45.917539 173.780224L620.935343 703.343971c-10.753338-18.916456-26.451642-35.321184-46.623962-46.937929C513.794419 621.477316 436.244798 642.513043 401.002106 703.343971l-113.420245-65.461927c10.910321-18.680982 17.268134-40.423132 17.189642-63.656622 0-69.778961-56.82786-126.449838-126.999278-126.685313v-130.923854c21.585168 0.078492 43.40581-5.337423 63.421148-16.875677 60.359978-34.850235 81.003248-112.242873 46.231505-173.152291l113.341753-65.461927c10.674847 18.680982 26.294659 34.850235 46.231505 46.309996 60.43847 34.928726 137.831108 14.049982 173.152292-46.623962L733.570673 126.274321c-10.83183 18.60249-17.03266 40.266149-17.032659 63.342656 0.078492 69.935944 57.063335 126.606821 127.391736 126.763804z m-197.877121-12.715627C603.039277 229.176703 507.750572 203.74545 433.183629 246.837294c-74.566943 43.013353-100.155179 138.302057-57.220318 212.712018 42.934861 74.40996 138.223566 99.841213 212.790509 56.82786 74.645435-43.091844 100.23367-138.302057 57.298809-212.712018z"  horiz-adv-x="1723" />

    
    <glyph glyph-name="qukuai" unicode="&#58979;" d="M128.456 766.443h767.088v-156.183h-767.088v156.183zM128.456 510.454h171.367v-508.897h-171.367v508.897zM382.952 510.454h512.591v-508.897h-512.591v508.897z"  horiz-adv-x="1024" />

    
    <glyph glyph-name="fenzhi" unicode="&#58892;" d="M551.79122223 644.016h234.756v-100.845c14.208-14.21 33.157-14.21 47.367 0l179.995 118.419c14.21 9.473 14.21 28.42 0 42.63l-179.995 123.155c-14.21 14.21-33.159 14.21-47.367 0v-88.623h-282.124l-189.467-331.57h-189.469v-0.324h-48.088c-23.683 0-47.367-23.684-47.367-47.368s23.684-47.367 47.367-47.367h284.204l-0.162 0.324h0.883l189.468 331.569zM833.91222223 216.78300000000002c-14.21 14.21-33.159 14.21-47.367 0v-93.804h-140.022l-142.103 236.835-47.367-94.734s132.628-222.626 142.102-236.835h187.388v-95.664c14.208-14.21 33.157-14.21 47.367 0l179.995 118.419c14.21 9.472 14.21 28.42 0 42.63l-179.994 123.154z"  horiz-adv-x="1820" />

    
    <glyph glyph-name="icon-test" unicode="&#58893;" d="M544.992-2.734v278.084h73.056v212.098h-73.056v351.139h-490.181v-68.342h421.837v-282.796h-68.342v-212.098h68.342v-346.425h490.181v68.342z"  horiz-adv-x="1024" />

    
    <glyph glyph-name="icon-test1" unicode="&#58894;" d="M618.048 394.237v68.342h-209.739v-68.342h-282.796v421.837h-70.7v-490.181h353.495v-73.056h209.739v73.056h280.439v-421.837h68.342v490.181z"  horiz-adv-x="1024" />

    
    <glyph glyph-name="xiaoxuxian" unicode="&#58997;" d="M949.4280555521055 821.4280555521059c17.25595095038475-17.25595095038474 17.256927352294475-45.23279486943493 1.4717196240837192e-14-62.4897222217294l-54.67850694401322-54.67850694401324c-17.25595095038474-17.25595095038475-45.229865663705795-17.25985655802361-62.4897222217294-1.4717196240837192e-14-17.25595095038475 17.25595095038474-17.256927352294475 45.23279486943493-1.4717196240837192e-14 62.4897222217294L886.9383333303762 821.4280555521061c17.25595095038474 17.25595095038475 45.229865663705795 17.25985655802361 62.4897222217294 1.4717196240837192e-14z m-378.84394096923455-378.84394096923455c17.25595095038475-17.25595095038474 17.256927352294475-45.23279486943493 1.4717196240837192e-14-62.4897222217294l-54.67850694401322-54.67850694401324c-17.25595095038474-17.25595095038475-45.229865663705795-17.25985655802361-62.4897222217294-1.4717196240837192e-14-17.25595095038475 17.25595095038474-17.256927352294475 45.23279486943493-1.4717196240837192e-14 62.4897222217294l54.67850694401322 54.67850694401324c17.25595095038474 17.25595095038475 45.229865663705795 17.25985655802361 62.4897222217294 1.4717196240837192e-14z m189.42197048461728 189.42197048461728c17.25595095038475-17.25595095038474 17.256927352294475-45.23279486943493 1.4717196240837192e-14-62.4897222217294l-54.67850694401322-54.67850694401324c-17.25595095038474-17.25595095038475-45.229865663705795-17.25985655802361-62.4897222217294-1.4717196240837192e-14-17.25595095038475 17.25595095038474-17.256927352294475 45.23279486943493-1.4717196240837192e-14 62.4897222217294l54.67850694401322 54.67850694401324c17.25595095038474 17.25595095038475 45.229865663705795 17.25985655802361 62.4897222217294 1.4717196240837192e-14z m-568.2659114538517-568.2659114538519c17.25595095038475-17.25595095038474 17.256927352294475-45.23279486943493 1.4717196240837192e-14-62.4897222217294l-54.67850694401322-54.67850694401324c-17.25595095038474-17.25595095038475-45.229865663705795-17.25985655802361-62.4897222217294-1.4717196240837192e-14-17.25595095038475 17.25595095038474-17.256927352294475 45.23279486943493-1.4717196240837192e-14 62.4897222217294l54.67850694401322 54.67850694401324c17.25595095038474 17.25595095038475 45.229865663705795 17.25985655802361 62.4897222217294 1.4717196240837192e-14z m189.42197048461728 189.42197048461728c17.25595095038475-17.25595095038474 17.256927352294475-45.23279486943493 1.4717196240837192e-14-62.4897222217294l-54.67850694401322-54.67850694401324c-17.25595095038474-17.25595095038475-45.229865663705795-17.25985655802361-62.4897222217294-1.4717196240837192e-14-17.25595095038475 17.25595095038474-17.256927352294475 45.23279486943493-1.4717196240837192e-14 62.4897222217294l54.67850694401322 54.67850694401324c17.25595095038474 17.25595095038475 45.229865663705795 17.25985655802361 62.4897222217294 1.4717196240837192e-14z"  horiz-adv-x="1024" />

    


  </font>
</defs>
</svg>
